Tsukiuta. The Animation | Season 3 Episode 6 And the Piece of Sheet | Season 0 Episode 38 Eretria Saves the Day

Sing 2016 Esub 720p BluRay 5 1 Dual Audio English Hindi GOPISAHI torrent download

seeders: 8
leechers: 228
updated:
Added ago by PENDUDESI ***** in Movies
Torrent Downloaded 10 times.
Info Hash: 86ADC6027960E9B71BDE42040E611DB08A6043FD


Torrent Files

Sing 2016 Esub 720p BluRay 5 1 Dual Audio English Hindi GOPISAHI (Size: 433.7 MB)
  Sing 2016 Esub 720p BluRay 5 1 Dual Audio English Hindi GOPISAHI 433.7 MB

Torrent Description



http://www.gopisahi.pw/


Format : Matroska

Format version : Version 4 / Version 2

File size : 434 MiB

Duration : 1 h 47 min

Overall bit rate : 562 kb/s

Movie name : GOPISAHI


Video

Format : HEVC

Duration : 1 h 43 min

Bit rate : 401 kb/s

Width : 1 280 pixels

Height : 688 pixels

Display aspect ratio : 1.85:1

Frame rate mode : Constant

Frame rate : 25.000 FPS

Color space : YUV

Chroma subsampling : 4:2:0

Bit depth : 8 bits

Bits/(Pixel*Frame) : 0.018

Stream size : 297 MiB (68%)

Title : GOPISAHI

Writing library : x265 2


Audio #1

Format : AAC

Duration : 1 h 47 min

Bit rate : 88.1 kb/s

Channel(s) : 6 channels

Channel positions : Front: L C R, Side: L R, LFE

Sampling rate : 44.1 kHz

Frame rate : 43.066 FPS (1024 SPF)

Compression mode : Lossy

Stream size : 68.0 MiB (16%)

Title : GOPISAHI

Language : English


Audio #2

Format : AAC

Duration : 1 h 43 min

Bit rate : 90.4 kb/s

Channel(s) : 6 channels

Channel positions : Front: L C R, Side: L R, LFE

Sampling rate : 44.1 kHz

Frame rate : 43.066 FPS (1024 SPF)

Compression mode : Lossy

Stream size : 66.9 MiB (15%)

Title : GOPISAHI

Language : Hindi


Text

Language : English




Related Torrents

torrent name size age seed leech
268.5 MB 41 seconds 286 103
397.9 MB 1 minute 67 355
327.0 MB 1 minute 408 363
360.8 MB 1 minute 564 228
453.3 MB 3 minutes 339 394

Sharing Widget


Download torrent
433.7 MB
seeders:1214
leechers:386
Sing 2016 Esub 720p BluRay 5 1 Dual Audio English Hindi GOPISAHI



To share this torrent use the code below and insert it into comments, status messages, forum posts or your signature.

Torrent: Sing 2016 Esub 720p BluRay 5 1 Dual Audio English Hindi GOPISAHI

Comments

Latest Searches