Half Girlfriend 2017 720p x264 Netflix DDS 5 1 DTOne ExClusive | Heartland - Paradies für Pferde | Memesis 10

Pixels 2015 English 720p BDRip [Hindi+English Sub PGS] Skyler torrent download

seeders: 174
leechers: 202
updated:
Added ago by rinku4445 ***** in Movies
Torrent Downloaded 5 times.
Info Hash: 75985D0A78AD441F9F2CC2DE81408D09B7739698


Torrent Files

Pixels-2015-English-720p-BDRip-[Hindi+English-Sub-PGS]--Skyler (Size: 885.5 MB)
  Pixels-2015-English-720p-BDRip-[Hindi+English-Sub-PGS]--Skyler 885.5 MB

Torrent Description






Pixels-2015-English-720p-BDRip-[Hindi+English-Sub-PGS]--Skyler
--::POSTER::--

--::S-C-R-E-E-N-S-H-O-T::--











--::M-O-R-E---I-N-F-O::--
General

Complete name      : Pixels 2015 English 720p BDRip  [Hindi+English SubPGS] Skyler.mkv
Format             : Matroska
File size          : 875 MiB
Duration           : 1 h 45 min
Overall bit rate   : 1 156 kb/s
Movie name         : Pixels 2015 Bluray English [Subtitle hindi PGS] Skyler

Video

Format/Info        : Advanced Video Codec
Codec ID           : V_MPEG4/ISO/AVC
Duration           : 1 h 45 min
Bit rate           : 1 030 kb/s
Width              : 720 pixels
Height             : 302 pixels
Color space        : YUV
Chroma subsampling : 4:2:0
Bit depth          : 8 bits
Stream size        : 780 MiB (89%)
Title              : Pixels 2015 Bluray English [Subtitle hindi PGS] Skyler
Language           : English
Default            : Yes


Audio

Format             : AAC
Format/Info        : Advanced Audio Codec
Duration           : 1 h 45 min
Bit rate           : 111 kb/s
Channel(s)         : 2 channels
Stream size        : 84.3 MiB (10%)
Title              : ORG DD2.0 Skyler
Language           : English
Default            : Yes
Forced             : No

Text #1

ID                 : 3
Codec ID/Info      : UTF-8 Plain Text
Duration           : 30 s 238 ms
Bit rate           : 56 b/s
Count of elements  : 6
Stream size        : 213 Bytes (0%)
Title              : Skyler
Language           : English
Default            : Yes
Forced             : Yes

Text #2

Format             : PGS
Codec ID           : HDMV/PGS
Duration           : 1 h 39 min
Bit rate           : 12.6 kb/s
Count of element   : 3121
Stream size        : 8.99 MiB (1%)
Title              : Skyler
Language           : Hindi
Default            : No
Forced             : No




Related Torrents

torrent name size age seed leech
73.8 MB 1 minute 248 237
87.72 MB 1 minute 629 146
77.7 MB 3 minutes 28 255
1.8 GB 3 minutes 20 452
3.8 GB 3 minutes 618 127

Sharing Widget


Download torrent
885.5 MB
seeders:1214
leechers:386
Pixels-2015-English-720p-BDRip-[Hindi+English-Sub-PGS]--Skyler



To share this torrent use the code below and insert it into comments, status messages, forum posts or your signature.

Torrent: Pixels-2015-English-720p-BDRip-[Hindi+English-Sub-PGS]--Skyler

Comments

Latest Searches