Una Noche en latino | Longmire 2. Sezon | ROMs and modifications

Kaalakaandi (2018) Hindi 720p HDRip x264 AAC ~ Ranvijay torrent download

seeders: 753
leechers: 23
updated:
Added ago by TheFighter ***** in Movies
Torrent Downloaded 10 times.
Info Hash: CF757CF2CCE847AF0A8E5B354DCA3892A0458FFC


Torrent Files

Kaalakaandi (2018) Hindi 720p HDRip x264 AAC ~ Ranvijay (Size: 932.6 MB)
  Kaalakaandi (2018) Hindi 720p HDRip x264 AAC ~ Ranvijay 932.6 MB

Torrent Description





Kaalakaandi (2018) Hindi 720p HDRip x264 AAC ~ Ranvijay

Buy RDP Online


Format                                   : Matroska
Format version                           : Version 4 / Version 2
File size                                : 933 MiB
Duration                                 : 1 h 44 min
Overall bit rate                         : 1 249 kb/s
Movie name                               : Kaalakaandi (2018) Hindi 720p HDRip x264 AAC ~ Ranvijay

Video
ID                                       : 1
Format                                   : AVC
Duration                                 : 1 h 44 min
Bit rate                                 : 1 137 kb/s
Width                                    : 1 280 pixels
Height                                   : 544 pixels
Display aspect ratio                     : 2.35:1
Frame rate mode                          : Constant
Frame rate                               : 25.000 FPS
Stream size                              : 885 MiB (95%)
Title                                    : ~Ranvijay~
Default                                  : Yes
Forced                                   : No

Audio
ID                                       : 2
Format                                   : AAC
Format/Info                              : Advanced Audio Codec
Format profile                           : LC
Codec ID                                 : A_AAC-2
Duration                                 : 1 h 44 min
Bit rate                                 : 61.4 kb/s
Channel(s)                               : 2 channels
Channel positions                        : Front: L R
Sampling rate                            : 48.0 kHz
Frame rate                               : 46.875 FPS (1024 SPF)
Compression mode                         : Lossy
Stream size                              : 45.8 MiB (5%)
Title                                    : ~Ranvijay~
Default                                  : Yes
Forced                                   : No

















Related Torrents

torrent name size age seed leech
BJKA9OE149
Posted by   Guest  in  Video
2.0 GB 4 minutes 233 197
2.4 GB 4 minutes 715 350
26.5 MB 4 minutes 399 257
2.9 MB 4 minutes 512 279
459.3 MB 4 minutes 684 401

Sharing Widget


Download torrent
932.6 MB
seeders:1214
leechers:386
Kaalakaandi (2018) Hindi 720p HDRip x264 AAC ~ Ranvijay



To share this torrent use the code below and insert it into comments, status messages, forum posts or your signature.

Torrent: Kaalakaandi (2018) Hindi 720p HDRip x264 AAC ~ Ranvijay

Comments

Latest Searches