Baixar toque para celular | Mannequin | Eps29 Dance Moms - Season 7 (2016)

Insidious Chapter 3 (2015) English DD5 1 720p BluRay With Hindi+English Subtitles ExtraMovies torrent download

seeders: 211
leechers: 286
updated:
Added ago by ExtraMovies ***** in Movies
Torrent Downloaded 10 times.
Info Hash: 500FB288EB5ADC0D6228AB2E782670AEE3C52DBB


Torrent Files

Insidious Chapter 3 (2015) English DD5 1 720p BluRay With Hindi+English Subtitles - ExtraMovies (Size: 860.1 MB)
  Insidious Chapter 3 (2015) English DD5 1 720p BluRay With Hindi+English Subtitles - ExtraMovies 860.1 MB

Torrent Description




Movie Info

General
Unique ID : 191495043615332964621006886161665713992 (0x90109A973A47DF7B8CAA87F1B8076748)
Complete name : ExtraMovies.cc - Insidious Chapter 3 (2015) Full Movie [English-DD5.1] 720p BluRay With Hindi PGS Subtitles
Format : Matroska
Format version : Version 4 / Version 2
File size : 860 MiB
Duration : 1 h 37 min
Overall bit rate : 1 235 kb/s
Movie name : ExtraMovies.cc - Insidious: Chapter 3 (2015) 720p BRRip English DD5.1 x264 AAC With Hindi+Eng PGS Subtitles
Encoded date : UTC 2018-01-21 11:16:20
Writing application : mkvmerge v18.0.0 ('Apricity') 64-bit
Writing library : libebml v1.3.5 + libmatroska v1.4.8

Video
ID : 1
Format : AVC
Format/Info : Advanced Video Codec
Format profile : [email protected]
Format settings : CABAC / 8 Ref Frames
Format settings, CABAC : Yes
Format settings, RefFrames : 8 frames
Codec ID : V_MPEG4/ISO/AVC
Duration : 1 h 37 min
Bit rate : 1 099 kb/s
Width : 1 280 pixels
Height : 544 pixels
Display aspect ratio : 2.35:1
Frame rate mode : Constant
Frame rate : 23.976 (23976/1000) FPS
Color space : YUV
Chroma subsampling : 4:2:0
Bit depth : 8 bits
Scan type : Progressive
Bits/(Pixel*Frame) : 0.066
Stream size : 765 MiB (89%)
Title : ExtraMovies.cc
Writing library : x264 core 142 r2479 dd79a61
Encoding settings : cabac=1 / ref=8 / deblock=1:0:0 / analyse=0x3:0x113 / me=umh / subme=9 / psy=1 / psy_rd=1.00:0.00 / mixed_ref=1 / me_range=16 / chroma_me=1 / trellis=2 / 8x8dct=1 / cqm=0 / deadzone=21,11 / fast_pskip=1 / chroma_qp_offset=-2 / threads=12 / lookahead_threads=1 / sliced_threads=0 / nr=0 / decimate=1 / interlaced=0 / bluray_compat=0 / constrained_intra=0 / bframes=3 / b_pyramid=2 / b_adapt=2 / b_bias=0 / direct=3 / weightb=1 / open_gop=0 / weightp=2 / keyint=240 / keyint_min=24 / scenecut=40 / intra_refresh=0 / rc_lookahead=40 / rc=2pass / mbtree=1 / bitrate=1099 / ratetol=1.0 / qcomp=0.60 / qpmin=0 / qpmax=69 / qpstep=4 / cplxblur=20.0 / qblur=0.5 / vbv_maxrate=62500 / vbv_bufsize=78125 / nal_hrd=none / filler=0 / ip_ratio=1.40 / aq=1:1.00
Default : Yes
Forced : No
Color range : Limited
Color primaries : BT.709
Transfer characteristics : BT.709
Matrix coefficients : BT.709

Audio
ID : 2
Format : AAC
Format/Info : Advanced Audio Codec
Format profile : HE-AAC / LC
Format settings : NBC
Codec ID : A_AAC-5
Duration : 1 h 37 min
Bit rate : 128 kb/s
Channel(s) : 6 channels
Channel positions : Front: L C R, Side: L R, LFE
Sampling rate : 48.0 kHz / 24.0 kHz
Frame rate : 23.438 FPS (1024 SPF)
Compression mode : Lossy
Delay relative to video : -105 ms
Stream size : 89.1 MiB (10%)
Title : ExtraMovies.cc
Language : English
Default : Yes
Forced : No

Text #1
ID : 3
Format : PGS
Muxing mode : zlib
Codec ID : S_HDMV/PGS
Codec ID/Info : Picture based subtitle format used on BDs/HD-DVDs
Duration : 1 h 28 min
Bit rate : 20.2 kb/s
Count of elements : 1570
Stream size : 12.8 MiB (1%)
Title : ExtraMovies.cc
Language : Hindi
Default : Yes
Forced : No

Text #2
ID : 4
Format : UTF-8
Codec ID : S_TEXT/UTF8
Codec ID/Info : UTF-8 Plain Text
Duration : 1 h 29 min
Bit rate : 39 b/s
Count of elements : 895
Stream size : 26.3 KiB (0%)
Title : ExtraMovies.cc
Language : English
Default : No
Forced : No












Note* It Contains Hindi PGS Subtitles Not Hindi Audio




Related Torrents

torrent name size age seed leech
Falco-3
Posted by   Guest  in  Video
1.5 GB 2 minutes 76 470
1.6 GB 2 minutes 66 193
1.1 GB 2 minutes 110 253
248.5 MB 2 minutes 292 50
6.8 GB 6 minutes 231 255

Sharing Widget


Download torrent
860.1 MB
seeders:1214
leechers:386
Insidious Chapter 3 (2015) English DD5 1 720p BluRay With Hindi+English Subtitles - ExtraMovies



To share this torrent use the code below and insert it into comments, status messages, forum posts or your signature.

Torrent: Insidious Chapter 3 (2015) English DD5 1 720p BluRay With Hindi+English Subtitles - ExtraMovies

Comments

Latest Searches