Der Honeymoon-Effekt: Liebe geht durch die Zellen | JB WANNABE | Voir tout

Gilmore Girls A Year in the Life (2016) Season 1 S01 (1080p BluRay x265 HEVC 10bit AAC 5 1 RZeroX) [QxR] torrent download

seeders: 34
leechers: 428
updated:
Added ago by QxR ***** in TV
Torrent Downloaded 10 times.
Info Hash: C5854337253B545052A8E3FF1DE0CAD7A13AE1A3


Torrent Files

Gilmore Girls - A Year in the Life (2016) Season 1 S01 (1080p BluRay x265 HEVC 10bit AAC 5 1 RZeroX) [QxR] (Size: 9.0 GB)
  Gilmore Girls - A Year in the Life (2016) Season 1 S01 (1080p BluRay x265 HEVC 10bit AAC 5 1 RZeroX) [QxR] 9.0 GB

Torrent Description







Media Information

Code:

General
Format : Matroska
Format version : Version 4 / Version 2
File size : 2.09 GiB
Duration : 1 h 30 min
Overall bit rate : 3 312 kb/s
Encoded date : UTC 2018-05-18 19:10:32
Writing application : mkvmerge v23.0.0 ('The Bride Said No') 64-bit
Writing library : libebml v1.3.6 + libmatroska v1.4.9

Video
ID : 1
Format : HEVC
Format/Info : High Efficiency Video Coding
Format profile : Main [email protected]@Main
Codec ID : V_MPEGH/ISO/HEVC
Duration : 1 h 30 min
Bit rate : 2 738 kb/s
Width : 1 920 pixels
Height : 1 080 pixels
Display aspect ratio : 16:9
Frame rate mode : Constant
Frame rate : 23.976 (24000/1001) FPS
Color space : YUV
Chroma subsampling : 4:2:0
Bit depth : 10 bits
Bits/(Pixel*Frame) : 0.055
Stream size : 1.73 GiB (83%)
Writing library : x265 2.7+340-aa9102400f24:[Windows][GCC 8.0.1][64 bit] 10bit
Encoding settings : cpuid=1111039 / frame-threads=3 / numa-pools=12 / wpp / no-pmode / no-pme / no-psnr / no-ssim / log-level=2 / input-csp=1 / input-res=1920x1080 / interlace=0 / total-frames=130110 / level-idc=0 / high-tier=1 / uhd-bd=0 / ref=4 / no-allow-non-conformance / no-repeat-headers / annexb / no-aud / no-hrd / info / hash=0 / no-temporal-layers / open-gop / min-keyint=23 / keyint=250 / gop-lookahead=0 / bframes=8 / b-adapt=2 / b-pyramid / bframe-bias=0 / rc-lookahead=70 / lookahead-slices=4 / scenecut=40 / radl=0 / no-intra-refresh / ctu=64 / min-cu-size=8 / no-rect / no-amp / max-tu-size=32 / tu-inter-depth=1 / tu-intra-depth=1 / limit-tu=0 / rdoq-level=2 / dynamic-rd=0.00 / no-ssim-rd / signhide / no-tskip / nr-intra=0 / nr-inter=0 / no-constrained-intra / strong-intra-smoothing / max-merge=3 / limit-refs=3 / limit-modes / me=3 / subme=5 / merange=57 / temporal-mvp / weightp / weightb / no-analyze-src-pics / deblock=-1:-1 / sao / no-sao-non-deblock / rd=4 / no-early-skip / rskip / no-fast-intra / no-tskip-fast / no-cu-lossless / no-b-intra / no-splitrd-skip / rdpenalty=0 / psy-rd=1.65 / psy-rdoq=1.00 / no-rd-refine / no-lossless / cbqpoffs=0 / crqpoffs=0 / rc=crf / crf=20.0 / qcomp=0.60 / qpstep=4 / stats-write=0 / stats-read=0 / ipratio=1.40 / pbratio=1.30 / aq-mode=3 / aq-strength=1.00 / cutree / zone-count=0 / no-strict-cbr / qg-size=32 / no-rc-grain / qpmax=69 / qpmin=0 / no-const-vbv / sar=0 / overscan=0 / videoformat=5 / range=0 / colorprim=2 / transfer=2 / colormatrix=2 / chromaloc=0 / display-window=0 / max-cll=0,0 / min-luma=0 / max-luma=1023 / log2-max-poc-lsb=8 / vui-timing-info / vui-hrd-info / slices=1 / no-opt-qp-pps / no-opt-ref-list-length-pps / no-multi-pass-opt-rps / scenecut-bias=0.00 / no-opt-cu-delta-qp / aq-motion / no-hdr / no-hdr-opt / no-dhdr10-opt / no-idr-recovery-sei / analysis-reuse-level=5 / scale-factor=0 / refine-intra=0 / refine-inter=0 / refine-mv=0 / no-limit-sao / ctu-info=0 / no-lowpass-dct / refine-mv-type=0 / copy-pic=1 / max-ausize-factor=1.0 / no-dynamic-refine / no-single-sei
Default : Yes
Forced : No

Audio
ID : 2
Format : AAC
Format/Info : Advanced Audio Codec
Format profile : LC
Codec ID : A_AAC
Duration : 1 h 30 min
Bit rate : 462 kb/s
Channel(s) : 6 channels
Channel positions : Front: L C R, Side: L R, LFE
Sampling rate : 48.0 kHz
Frame rate : 46.875 FPS (1024 spf)
Compression mode : Lossy
Delay relative to video : 20 ms
Stream size : 299 MiB (14%)
Language : English
Default : No
Forced : No

Subtitle
ID : 3
Format : PGS
Muxing mode : zlib
Codec ID : S_HDMV/PGS
Codec ID/Info : Picture based subtitle format used on BDs/HD-DVDs
Duration : 1 h 29 min
Bit rate : 159 kb/s
Count of elements : 4816
Stream size : 102 MiB (5%)
Title : SDH
Language : English
Default : No
Forced : No

Menu
00:00:00.000 : en:Chapter 1
00:01:06.400 : en:Chapter 2
00:12:26.162 : en:Chapter 3
00:24:04.276 : en:Chapter 4
00:33:23.793 : en:Chapter 5
00:45:09.707 : en:Chapter 6
00:54:14.126 : en:Chapter 7
01:03:20.547 : en:Chapter 8
01:12:23.422 : en:Chapter 9
01:20:59.313 : en:Chapter 10

Source Information

Code:

Release:
Gilmore.Girls.A.Year.in.the.Life.S01.1080p.BluRay.REMUX.AVC.DTS-HD.MA.5.1-EPSiLON (79.96 GBs)


Note From QxR:

Quote:

Whilst we are happy for our releases to be re-posted on a platform we aren't on, please do so in an 'as-is' format. We ask that you do not create a new torrent, include all descriptions you see above including the QxR logo, tags, notes and screenshots. If you'd like to become a permanent poster on a website we don't post to, feel free to get in contact with a QxR member.




Related Torrents

torrent name size age seed leech
1.6 GB 46 seconds 644 10
150.2 MB 46 seconds 478 337
119.1 MB 46 seconds 205 21
HAVD913C
Posted by   Guest  in  Video
1.6 GB 46 seconds 223 217
80.9 MB 46 seconds 341 173

Sharing Widget


Download torrent
9.0 GB
seeders:1214
leechers:386
Gilmore Girls - A Year in the Life (2016) Season 1 S01 (1080p BluRay x265 HEVC 10bit AAC 5 1 RZeroX) [QxR]



To share this torrent use the code below and insert it into comments, status messages, forum posts or your signature.

Torrent: Gilmore Girls - A Year in the Life (2016) Season 1 S01 (1080p BluRay x265 HEVC 10bit AAC 5 1 RZeroX) [QxR]

Comments

Latest Searches