DVDRIP Captain America: Civil War | [ 168x.me] 上 海 小 美 女 網 吧 露 奶 露 底 勾 搭 鄰 座 小 哥 哥 各 種 挑 逗 | Suicide.Squad.Hell.to.Pay.2018.German.DL.1080p.BluRay.x264-ENCOUNTERS

English vs English (2016) Bengali 720p HD x264 AAC[MovCR] torrent download

seeders: 163
leechers: 264
updated:
Added ago by ictv ***** in Movies
Torrent Downloaded 10 times.
Info Hash: 7616F03F4EF333D6280AF42DEC401D5106D9599E


Torrent Files

English vs English (2016) Bengali 720p HD x264 AAC[MovCR] (Size: 548.1 MB)
  English vs English (2016) Bengali 720p HD x264 AAC[MovCR] 548.1 MB

Torrent Description



visit www.movcr.com

http://www.imdb.com/title/tt6603662/



General
Complete name : www.MovCR.com - English vs English (2016) Bengali 720p HD x264 AAC[MovCR].mkv
Format : Matroska
Format version : Version 4 / Version 2
File size : 548 MiB
Duration : 1 h 55 min
Overall bit rate : 662 kb/s
Movie name : www.MovCR.com
Encoded date : UTC 2018-04-12 14:04:11
Writing application : mkvmerge v9.5.0 ('Quiet Fire') 64bit
Writing library : libebml v1.3.4 + libmatroska v1.4.5

Video
ID : 1
Format : AVC
Format/Info : Advanced Video Codec
Format profile : [email protected]
Format settings : CABAC / 3 Ref Frames
Format settings, CABAC : Yes
Format settings, RefFrames : 3 frames
Codec ID : V_MPEG4/ISO/AVC
Duration : 1 h 55 min
Bit rate : 535 kb/s
Width : 1 280 pixels
Height : 720 pixels
Display aspect ratio : 16:9
Frame rate mode : Constant
Frame rate : 24.000 FPS
Color space : YUV
Chroma subsampling : 4:2:0
Bit depth : 8 bits
Scan type : Progressive
Bits/(Pixel*Frame) : 0.024
Stream size : 442 MiB (81%)
Title : www.MovCR.com
Default : Yes
Forced : No
Color range : Limited
Color primaries : BT.709
Transfer characteristics : BT.709
Matrix coefficients : BT.709

Audio
ID : 2
Format : AAC
Format/Info : Advanced Audio Codec
Format profile : LC
Codec ID : A_AAC-2
Duration : 1 h 55 min
Bit rate : 126 kb/s
Channel(s) : 2 channels
Channel positions : Front: L R
Sampling rate : 44.1 kHz
Frame rate : 43.066 FPS (1024 SPF)
Compression mode : Lossy
Stream size : 104 MiB (19%)
Title : www.MovCR.com
Language : Bengali
Default : Yes
Forced : No









Related Torrents

torrent name size age seed leech
3.52 GB 1 minute 245 392
1.67 GB 1 minute 370 195
294.84 MB 1 minute 379 296
887.34 MB 1 minute 569 231
3.14 GB 1 minute 637 439

Sharing Widget


Download torrent
548.1 MB
seeders:1214
leechers:386
English vs English (2016) Bengali 720p HD x264 AAC[MovCR]



To share this torrent use the code below and insert it into comments, status messages, forum posts or your signature.

Torrent: English vs English (2016) Bengali 720p HD x264 AAC[MovCR]

Comments

Latest Searches