Season 4 Episode 1 Thanks for the Memories | Télécharger Blade Runner 2049 | Nelly Cesar

Ali G Indahouse (2002) 720p WEB DL x264 Dual Audio [Hindi English] DD5 1 ~ Ranvijay torrent download

seeders: 297
leechers: 409
updated:
Added ago by TheFighter ***** in Movies
Torrent Downloaded 10 times.
Info Hash: 21DBBE0A012F5CAD47CA77F69A9B7832B1F005C4


Torrent Files

Ali G Indahouse (2002) 720p WEB-DL x264 Dual Audio [Hindi - English] DD5 1 ~ Ranvijay (Size: 1.0 GB)
  Ali G Indahouse (2002) 720p WEB-DL x264 Dual Audio [Hindi - English] DD5 1 ~ Ranvijay 1.0 GB

Torrent Description






Ali G Indahouse (2002) 720p WEB-DL x264 Dual Audio [Hindi - English] DD5.1 ~ Ranvijay

Thanks To Hammer For Hindi Audio

Buy RDP Online


Format                                   : Matroska
Format version                           : Version 4 / Version 2
File size                                : 1 017 MiB
Duration                                 : 1 h 27 min
Overall bit rate                         : 1 632 kb/s
Movie name                               : Ali G Indahouse (2002) 720p WEB-DL x264 Dual Audio [Hindi - English] DD5.1 ~ Ranvijay

Video
ID                                       : 1
Format                                   : AVC
Duration                                 : 1 h 27 min
Bit rate                                 : 1 192 kb/s
Width                                    : 1 280 pixels
Height                                   : 694 pixels
Display aspect ratio                     : 1.85:1
Frame rate mode                          : Constant
Frame rate                               : 23.976 (24000/1001) FPS
Stream size                              : 736 MiB (72%)
Title                                    : ~Ranvijay~

Audio #1
ID                                       : 2
Format                                   : AC-3
Format/Info                              : Audio Coding 3
Codec ID                                 : A_AC3
Duration                                 : 1 h 27 min
Bit rate mode                            : Constant
Bit rate                                 : 224 kb/s
Channel(s)                               : 6 channels
Channel positions                        : Front: L C R, Side: L R, LFE
Sampling rate                            : 48.0 kHz
Frame rate                               : 31.250 FPS (1536 SPF)
Bit depth                                : 16 bits
Compression mode                         : Lossy
Delay relative to video                  : -5 ms
Stream size                              : 140 MiB (14%)
Title                                    : ~Ranvijay~
Language                                 : Hindi
Service kind                             : Complete Main
Default                                  : Yes
Forced                                   : No

Audio #2
ID                                       : 3
Format                                   : AC-3
Format/Info                              : Audio Coding 3
Codec ID                                 : A_AC3
Duration                                 : 1 h 27 min
Bit rate mode                            : Constant
Bit rate                                 : 224 kb/s
Channel(s)                               : 6 channels
Channel positions                        : Front: L C R, Side: L R, LFE
Sampling rate                            : 48.0 kHz
Frame rate                               : 31.250 FPS (1536 SPF)
Bit depth                                : 16 bits
Compression mode                         : Lossy
Delay relative to video                  : -5 ms
Stream size                              : 140 MiB (14%)
Title                                    : ~Ranvijay~
Language                                 : English
Service kind                             : Complete Main
Default                                  : No
Forced                                   : No

Menu
00:00:00.000                             : :Straight Outta Staines
00:04:46.160                             : :The Dog's Bollocks
00:05:58.107                             : :The Berkshire Turf Wars
00:10:33.090                             : :Keepin' It Real
00:13:41.153                             : :Dishonourable Member
00:14:31.162                             : :Me Julie
00:15:10.201                             : :Ali's Dream
00:17:04.106                             : :Ali on Hunger Strike
00:24:42.105                             : :Fear and Loathing on the Campaign Trail
00:30:37.127                             : :Ali's Respectable Member
00:31:56.206                             : :R-E-S-T-E-C-P
00:36:18.176                             : :Sex&Drugs&Customs&Excise
00:39:32.119                             : :Ali's Manifesto
00:42:28.129                             : :A Complete Bell End
00:50:39.202                             : :Peace
00:55:42.088                             : :Missing Me Julie
00:56:58.164                             : :The Last Temptation of Ali G
01:00:28.208                             : :Drive-By FM
01:04:22.191                             : :Mission: Well-Tricky
01:18:44.177                             : :Da (Bell) End



















Related Torrents

torrent name size age seed leech
89.37 MB 4 minutes 344 442
3.27 GB 4 minutes 776 368
471.18 MB 4 minutes 354 214
6.13 MB 4 minutes 286 134
568.2 MB 4 minutes 618 444

Sharing Widget


Download torrent
1.0 GB
seeders:1214
leechers:386
Ali G Indahouse (2002) 720p WEB-DL x264 Dual Audio [Hindi - English] DD5 1 ~ Ranvijay



To share this torrent use the code below and insert it into comments, status messages, forum posts or your signature.

Torrent: Ali G Indahouse (2002) 720p WEB-DL x264 Dual Audio [Hindi - English] DD5 1 ~ Ranvijay

Comments

Latest Searches