Sheena, Queen of the Jungle | Dragon Ball 520 | Supergirl - Third Season

18+ Beauty Mark 2017 UNCENSORED Movies 720p HDRip x264 5 1 ESubs with Sample ☻rDX☻ torrent download

seeders: 527
leechers: 388
updated:
Added ago by nehalpuja ***** in Movies
Torrent Downloaded 10 times.
Info Hash: 1CC7924F372DCFF776AD148E0A93822F509E7DAD


Torrent Files

18+ Beauty Mark 2017 UNCENSORED Movies 720p HDRip x264 5 1 ESubs with Sample ☻rDX☻ (Size: 937.3 MB)
  18+ Beauty Mark 2017 UNCENSORED Movies 720p HDRip x264 5 1 ESubs with Sample ☻rDX☻ 937.3 MB

Torrent Description



18+ Beauty Mark 2017 UNCENSORED Movies 720p HDRip x264 5.1 ESubs with Sample ☻rDX☻
===============================================================================================

SCREEN SHOTS:



or

http://iphonehosting.eu/2018/5/a/revenue/1.html

File size : 928 MiB
Duration : 1 h 27 min
Overall bit rate : 1 485 kb/s
Movie name : 18+ Beauty Mark 2017 UNCENSORED Movies 720p HDRip x264 5.1 ESubs ☻rDX☻

Video
ID : 2
Format : AVC
Format/Info : Advanced Video Codec
Format profile : [email protected]
Format settings, CABAC : Yes
Format settings, ReFrames : 4 frames
Codec ID : V_MPEG4/ISO/AVC
Duration : 1 h 27 min
Bit rate : 1 100 kb/s
Width : 1 280 pixels
Height : 544 pixels
Display aspect ratio : 2.35:1
Frame rate mode : Constant
Frame rate : 23.810 FPS
Color space : YUV
Chroma subsampling : 4:2:0
Bit depth : 8 bits
Scan type : Progressive
Bits/(Pixel*Frame) : 0.066
Stream size : 670 MiB (72%)
Title : ☻rDX☻
Writing library : x264

Audio
ID : 1
Format : AC-3
Format/Info : Audio Coding 3
Mode extension : CM (complete main)
Format settings, Endianness : Big
Codec ID : A_AC3
Duration : 1 h 27 min
Bit rate mode : Constant
Bit rate : 384 kb/s
Channel(s) : 6 channels
Channel positions : Front: L C R, Side: L R, LFE
Sampling rate : 48.0 kHz
Frame rate : 31.250 FPS (1536 spf)
Bit depth : 16 bits
Compression mode : Lossy
Stream size : 240 MiB (26%)
Title : ☻rDX☻
Default : Yes
Forced : No

Text
ID : 3
Format : UTF-8
Codec ID : S_TEXT/UTF8
Codec ID/Info : UTF-8 Plain Text
Title : ☻rDX☻
Default : Yes
Forced : No



IMDB : http://www.imdb.com/title/tt4520924



Related Torrents

torrent name size age seed leech
672.07 MB 3 minutes 752 254
975.93 MB 3 minutes 156 435
1.1 GB 3 minutes 294 397
51.1 MB 5 minutes 566 271
1.3 GB 5 minutes 186 80

Sharing Widget


Download torrent
937.3 MB
seeders:1214
leechers:386
18+ Beauty Mark 2017 UNCENSORED Movies 720p HDRip x264 5 1 ESubs with Sample ☻rDX☻



To share this torrent use the code below and insert it into comments, status messages, forum posts or your signature.

Torrent: 18+ Beauty Mark 2017 UNCENSORED Movies 720p HDRip x264 5 1 ESubs with Sample ☻rDX☻

Comments

Latest Searches